Exmo  Perfect Money papa-change.com
    (0):
    (2):
    → : Nirvana - Live At Reading, 1992 (2009) Japanese SHM-CD + DVD9 [Re-Up]
    (1):
    Yandex
    : 3
Nirvana - Live At Reading, 1992 (2009) Japanese SHM-CD + DVD9 [Re-Up]

Nirvana - Live At Reading, 1992 (2009) [Japanese SHM-CD + DVD9]
EAC | FLAC | Image (Cue+Log) ~ 592 Mb (incl 5%) | Mp3 (CBR320) ~ 188 Mb (incl 5%) | Time: 01:18:01
DVD9 | NTSC | 4:3 (720x480) VBR | AC3 5.1, 448 kbps; AC3 2.0, 192 kbps; DTS 5.1 | 01:37:22 | ~ 7 Gb
Genre: Grunge, Alternative Rock | Label: Universal/Geffen | # UICY-94346 | Scans ~ 52 Mb

Live at Reading is a live CD/DVD released by Nirvana on November 2, 2009, chronicling its 1992 performance at the Reading Festival. Bootlegged for years following the performance, the new issues present the performance for the first time mastered and color corrected. The CD version of Live at Reading debuted at number 37 on the Billboard 200 in the U.S.; the DVD version debuted at Number 1 in the top 40 on Billboard's Top Music Video Chart, remaining in the top 40 for 25 weeks.
Nirvana - Live At Reading, 1992 (2009) Japanese SHM-CD + DVD9 [Re-Up]





× Nirvana - Live At Reading, 1992 (2009) Japanese SHM-CD + DVD9 [Re-Up]


Nirvana - Live At Reading, 1992 (2009) Japanese SHM-CD + DVD9 [Re-Up]



Wow! What a picture!





Nirvana - Live At Reading, 1992 (2009) [Japanese SHM-CD + DVD9]
EAC | FLAC | Image (Cue+Log) ~ 592 Mb (incl 5%) | Mp3 (CBR320) ~ 188 Mb (incl 5%) | Time: 01:18:01
DVD9 | NTSC | 4:3 (720x480) VBR | AC3 5.1, 448 kbps; AC3 2.0, 192 kbps; DTS 5.1 | 01:37:22 | ~ 7 Gb
Genre: Grunge, Alternative Rock | Label: Universal/Geffen | # UICY-94346 | Scans ~ 52 Mb

Live at Reading is a live CD/DVD released by Nirvana on November 2, 2009, chronicling its 1992 performance at the Reading Festival. Bootlegged for years following the performance, the new issues present the performance for the first time mastered and color corrected. The CD version of Live at Reading debuted at number 37 on the Billboard 200 in the U.S.; the DVD version debuted at Number 1 in the top 40 on Billboard's Top Music Video Chart, remaining in the top 40 for 25 weeks.
Certain concerts create a legend as soon as the final note ceases to ring. Nirvana's headlining appearance at the 1992 Reading Festival is one of these shows, a concert that arrived at precisely the right moment and stands as testament to a band at the peak of its powers…and right before things started to turn sour within the Nirvana camp. Despite the happy news of the birth of Frances Bean Cobain a mere 12 days before this August 30 festival, rumors swirled around Nirvana right up until the band hit the stage. Kurt Cobain took full advantage of these scurrilous stories, making his entrance in a hospital gown and wheelchair pushed by journalist Everett True. Cobain feebly reached for the microphone to croak out the opening lines of "The Rose," only to collapse onto the stage, milking the drama for a moment before leading Krist Novoselic and Dave Grohl through a ferocious "Breed." This impish sense of humor has been obscured over the years, lost under the weight of the band's tragic legacy, along with the fact that Nirvana could actually be fun as well as furious. Live at Reading brings all this roaring back. This is Nirvana's purest blast of rock & roll: there's a boundless, invigorating energy here and, just as importantly, there's a sense of joy to the performances, a joy that bubbles to the surface when Kurt laughs during the intro of "Sliver" but can be heard throughout the show, as the band rushes in tandem, pushing the tempos on "Aneurysm" and "Territorial Pissings," ebbing and flowing as one. Hints of this could be heard on the live comp From the Muddy Banks of the Wishkah, but this is a complete document of Nirvana in full flight and one of the greatest live rock & roll albums ever.

Review by Stephen Thomas Erlewine, Allmusic.com


Nirvana - Live At Reading, 1992 (2009) Japanese SHM-CD + DVD9 [Re-Up]





× Nirvana - Live At Reading, 1992 (2009) Japanese SHM-CD + DVD9 [Re-Up]


Nirvana - Live At Reading, 1992 (2009) Japanese SHM-CD + DVD9 [Re-Up]



Wow! What a picture!





http://www.allmusic.com/artist/nirvana-mn0000357406]Nirvana at Allmusic

http://www.nirvana.com/]Nirvana Website

https://en.wikipedia.org/wiki/Nirvana_%28band%29]Nirvana at Wiki


Recorded on August 30, 1992 at Richfield Avenue in Reading, England for the 1992 Reading Festival.

Tracklist:

01. Breed (3:12)
02. Drain You (3:38)
03. Aneurysm (4:35)
04. School (2:43)
05. Sliver (2:06)
06. In Bloom (4:36)
07. Come As You Are (3:36)
08. Lithium (4:22)
09. About A Girl (2:52)
10. Tourette's (1:51)
11. Polly (2:49)
12. Lounge Act (2:37)
13. Smells Like Teen Spirit (4:45)
14. On A Plain (3:00)
15. Negative Creep (2:52)
16. Been A Son (2:13)
17. All Apologies (3:10)
18. Blew (3:20)
19. Dumb (2:32)
20. Stay Away (3:33)
21. Spank Thru (3:07)
22. The Money Will Roll Right In (2:17)
23. D-7 (3:44)
24. Territorial Pissings (4:30)


http://avxhome.in/music/#collapse_53912]EAC log



Exact Audio Copy V0.99 prebeta 5 from 4. May 2009

Отчёт EAC об извлечении, выполненном 10. января 2011, 14:36

Nirvana / Live At Reading (SHM-CD UICY-94346)

Дисковод: ASUS DRW-24B1ST Adapter: 0 ID: 2

Режим чтения : Достоверность
?спользование точного потока : Да
Отключение кэша аудио : Да
?спользование указателей C2 : Нет

Коррекция смещения при чтении : 6
Способность читать области Lead-in и Lead-out : Нет
Заполнение пропущенных сэмплов тишиной : Да
Удаление блоков с тишиной в начале и конце : Нет
При вычислениях CRC использовались нулевые сэмплы : Да
?нтерфейс : Встроенный Win32-интерфейс для Win NT/2000

Выходной формат : Внутренние WAV-операции
Формат сэмплов : 44.100 Гц; 16 бит; стерео


TOC извлечённого CD

Трек | Старт | Длительность | Начальный сектор | Конечный сектор
––––––––––––––––––––––––––––––––––-
1 | 0:00.00 | 3:12.06 | 0 | 14405
2 | 3:12.06 | 3:38.33 | 14406 | 30788
3 | 6:50.39 | 4:35.02 | 30789 | 51415
4 | 11:25.41 | 2:43.21 | 51416 | 63661
5 | 14:08.62 | 2:06.09 | 63662 | 73120
6 | 16:14.71 | 4:36.12 | 73121 | 93832
7 | 20:51.08 | 3:36.25 | 93833 | 110057
8 | 24:27.33 | 4:21.61 | 110058 | 129693
9 | 28:49.19 | 2:51.72 | 129694 | 142590
10 | 31:41.16 | 1:50.43 | 142591 | 150883
11 | 33:31.59 | 2:48.47 | 150884 | 163530
12 | 36:20.31 | 2:36.59 | 163531 | 175289
13 | 38:57.15 | 4:45.14 | 175290 | 196678
14 | 43:42.29 | 3:00.22 | 196679 | 210200
15 | 46:42.51 | 2:52.33 | 210201 | 223133
16 | 49:35.09 | 2:13.32 | 223134 | 233140
17 | 51:48.41 | 3:09.64 | 233141 | 247379
18 | 54:58.30 | 3:19.54 | 247380 | 262358
19 | 58:18.09 | 2:32.30 | 262359 | 273788
20 | 60:50.39 | 3:32.70 | 273789 | 289758
21 | 64:23.34 | 3:06.65 | 289759 | 303773
22 | 67:30.24 | 2:16.42 | 303774 | 314015
23 | 69:46.66 | 3:43.62 | 314016 | 330802
24 | 73:30.53 | 4:29.62 | 330803 | 351039


Характеристики диапазона извлечения и сообщения об ошибках

Выбранный диапазон

?мя файла D:\Music\!MyCDRips\Nirvana\Nirvana - 2009 - Live At Reading (Universal SHM-CD UICY-94346)\Nirvana - 2009 - Live At Reading (Universal SHM-CD UICY-94346) (wav)\Nirvana - Live At Reading (SHM-CD UICY-94346).wav

Пиковый уровень 100.0 %
Качество диапазона 100.0 %
CRC теста E4734B80
CRC копии E4734B80
Копирование… OK

Ошибок не произошло


AccurateRip: сводка

Трек 1 точное извлечение (доверие 132) [F0CC4FC6]
Трек 2 точное извлечение (доверие 133) [0F1C23ED]
Трек 3 точное извлечение (доверие 133) [8305AD87]
Трек 4 точное извлечение (доверие 133) [9AD36EC5]
Трек 5 точное извлечение (доверие 133) [8DC8061D]
Трек 6 точное извлечение (доверие 132) [665E615F]
Трек 7 точное извлечение (доверие 133) [11154ED8]
Трек 8 точное извлечение (доверие 133) [29C386C3]
Трек 9 точное извлечение (доверие 133) 1F93691
Трек 10 точное извлечение (доверие 133) [8B0FEB9A]
Трек 11 точное извлечение (доверие 133) [089129D1]
Трек 12 точное извлечение (доверие 132) [5D2EF50E]
Трек 13 точное извлечение (доверие 133) [5E2B7F98]
Трек 14 точное извлечение (доверие 132) [0AFDFFFE]
Трек 15 точное извлечение (доверие 132) [8064FE79]
Трек 16 точное извлечение (доверие 132) [5A08D792]
Трек 17 точное извлечение (доверие 132) [E09EE291]
Трек 18 точное извлечение (доверие 132) [388F9359]
Трек 19 точное извлечение (доверие 132) [77531777]
Трек 20 точное извлечение (доверие 132) [E9D666F0]
Трек 21 точное извлечение (доверие 133) [CABDDA5B]
Трек 22 точное извлечение (доверие 133) [67498C82]
Трек 23 точное извлечение (доверие 130) 4427053
Трек 24 точное извлечение (доверие 131) [323E114F]

Все треки извлечены точно

Конец отчёта


http://avxhome.in/music/#collapse_95155]DR log



foobar2000 1.2 / Dynamic Range Meter 1.1.1
log date: 2016-09-09 21:35:29

––––––––––––––––––––––––––––––––––––––––
Analyzed: Nirvana / Live At Reading (SHM-CD UICY-94346)
––––––––––––––––––––––––––––––––––––––––

DR Peak RMS Duration Track
––––––––––––––––––––––––––––––––––––––––
DR10 -0.02 dB -10.26 dB 3:12 01-Breed
DR9 -0.02 dB -9.86 dB 3:38 02-Drain You
DR9 -0.05 dB -9.56 dB 4:35 03-Aneurysm
DR9 -0.06 dB -10.23 dB 2:43 04-School
DR10 -0.02 dB -10.44 dB 2:06 05-Sliver
DR9 -0.04 dB -10.24 dB 4:36 06-In Bloom
DR9 -0.06 dB -10.22 dB 3:36 07-Come As You Are
DR9 0.00 dB -10.64 dB 4:22 08-Lithium
DR10 -0.01 dB -10.62 dB 2:52 09-About A Girl
DR9 -0.03 dB -10.02 dB 1:51 10-Tourette's
DR11 -0.08 dB -12.87 dB 2:49 11-Polly
DR9 0.00 dB -9.47 dB 2:37 12-Lounge Act
DR9 0.00 dB -10.16 dB 4:45 13-Smells Like Teen Spirit
DR9 0.00 dB -9.72 dB 3:00 14-On A Plain
DR9 -0.01 dB -9.62 dB 2:52 15-Negative Creep
DR10 0.00 dB -10.23 dB 2:13 16-Been A Son
DR9 0.00 dB -9.89 dB 3:10 17-All Apologies
DR9 0.00 dB -9.42 dB 3:20 18-Blew
DR10 -0.08 dB -11.27 dB 2:32 19-Dumb
DR9 0.00 dB -9.22 dB 3:33 20-Stay Away
DR10 0.00 dB -10.45 dB 3:07 21-Spank Thru
DR10 0.00 dB -10.55 dB 2:17 22-The Money Will Roll Right In
DR9 0.00 dB -9.56 dB 3:44 23-D-7
DR9 0.00 dB -10.32 dB 4:30 24-Territorial Pissings
––––––––––––––––––––––––––––––––––––––––

Number of tracks: 24
Official DR value: DR9

Samplerate: 44100 Hz
Channels: 2
Bits per sample: 16
Bitrate: 1009 kbps
Codec: FLAC
================================================================================






Nirvana - Live At Reading, 1992 (2009) Japanese SHM-CD + DVD9 [Re-Up]





× Nirvana - Live At Reading, 1992 (2009) Japanese SHM-CD + DVD9 [Re-Up]


Nirvana - Live At Reading, 1992 (2009) Japanese SHM-CD + DVD9 [Re-Up]



Wow! What a picture!






Nirvana - Live At Reading, 1992 (2009) Japanese SHM-CD + DVD9 [Re-Up]





× Nirvana - Live At Reading, 1992 (2009) Japanese SHM-CD + DVD9 [Re-Up]


Nirvana - Live At Reading, 1992 (2009) Japanese SHM-CD + DVD9 [Re-Up]



Wow! What a picture!






Nirvana - Live At Reading, 1992 (2009) Japanese SHM-CD + DVD9 [Re-Up]





× Nirvana - Live At Reading, 1992 (2009) Japanese SHM-CD + DVD9 [Re-Up]


Nirvana - Live At Reading, 1992 (2009) Japanese SHM-CD + DVD9 [Re-Up]



Wow! What a picture!






Nirvana - Live At Reading, 1992 (2009) Japanese SHM-CD + DVD9 [Re-Up]





× Nirvana - Live At Reading, 1992 (2009) Japanese SHM-CD + DVD9 [Re-Up]


Nirvana - Live At Reading, 1992 (2009) Japanese SHM-CD + DVD9 [Re-Up]



Wow! What a picture!






Nirvana - Live At Reading, 1992 (2009) Japanese SHM-CD + DVD9 [Re-Up]





× Nirvana - Live At Reading, 1992 (2009) Japanese SHM-CD + DVD9 [Re-Up]


Nirvana - Live At Reading, 1992 (2009) Japanese SHM-CD + DVD9 [Re-Up]



Wow! What a picture!






Nirvana - Live At Reading, 1992 (2009) Japanese SHM-CD + DVD9 [Re-Up]





× Nirvana - Live At Reading, 1992 (2009) Japanese SHM-CD + DVD9 [Re-Up]


Nirvana - Live At Reading, 1992 (2009) Japanese SHM-CD + DVD9 [Re-Up]



Wow! What a picture!






Nirvana - Live At Reading, 1992 (2009) Japanese SHM-CD + DVD9 [Re-Up]





× Nirvana - Live At Reading, 1992 (2009) Japanese SHM-CD + DVD9 [Re-Up]


Nirvana - Live At Reading, 1992 (2009) Japanese SHM-CD + DVD9 [Re-Up]



Wow! What a picture!






Nirvana - Live At Reading, 1992 (2009) Japanese SHM-CD + DVD9 [Re-Up]





× Nirvana - Live At Reading, 1992 (2009) Japanese SHM-CD + DVD9 [Re-Up]


Nirvana - Live At Reading, 1992 (2009) Japanese SHM-CD + DVD9 [Re-Up]



Wow! What a picture!






DVD Content:

01. Breed
02. Drain You
03. Aneurysm
04. School
05. Sliver
06. In Bloom
07. Come As You Are
08. Lithium
09. About A Girl
10. Tourette's
11. Polly
12. Lounge Act
13. Smells Like Teen Spirit
14. On A Plain
15. Negative Creep
16. Been A Son
17. All Apologies
18. Blew
19. Dumb
20. Stay Away
21. Spank Thru
22. Love Buzz
23. The Money Will Roll Right In
24. D-7
25. Territorial Pissings





Nirvana - Live At Reading, 1992 (2009) Japanese SHM-CD + DVD9 [Re-Up]





× Nirvana - Live At Reading, 1992 (2009) Japanese SHM-CD + DVD9 [Re-Up]


Nirvana - Live At Reading, 1992 (2009) Japanese SHM-CD + DVD9 [Re-Up]



Wow! What a picture!






Nirvana - Live At Reading, 1992 (2009) Japanese SHM-CD + DVD9 [Re-Up]





× Nirvana - Live At Reading, 1992 (2009) Japanese SHM-CD + DVD9 [Re-Up]


Nirvana - Live At Reading, 1992 (2009) Japanese SHM-CD + DVD9 [Re-Up]



Wow! What a picture!






All thanks to original releasers: Misantrop & intellect

http://avxhome.se/blogs/Designol]More interesting music in My Blog







Password: designol





















Password: designol


















Buy Premium Account To Get Resumable Support & Max Speed

DOWNLOAD LINK


Links are Interchangeable - Single Extraction - Premium is support resumable


  : 16-09-2016, 04:21   |   : 373   |   : 0 |  
[related-news]
:
    {related-news}
[/related-news]
:
E-Mail:
:

,
:

builditools.ru